打印 上一皇冠体育投注 下一皇冠体育投注

[4K美女视频] 2019 清凉夏日比基尼美女性感走秀写真4 [2160P/MP4/577MB]

[复制链接]

1216

皇冠体育投注

1362

帖子

9256

积分

超级版主

Rank: 8Rank: 8

积分
9256
跳转到指定楼层
楼主
 楼主| 公布于 5 天前 | 只看该作者 |只看大图 回帖奖励 |倒序扫瞄 |阅读模式
本帖最后由 叽里呱啦 于 2019-10-9 21:51 编辑

2019 清凉夏日比基尼美女性感走秀写真4 [2160P/MP4/577MB] 2019 清凉夏日比基尼美女性感走秀写真4 [2160P/MP4/577MB] 2019 清凉夏日比基尼美女性感走秀写真4 [2160P/MP4/577MB] 2019 清凉夏日比基尼美女性感走秀写真4 [2160P/MP4/577MB]

General
Complete name                  : 2019清凉夏日比基尼美女性感走秀写真4.mp4
Format                         : MPEG-4
Format profile                 : Base Media
Codec ID                       : isom (isom/iso2/avc1/mp41)
File size                      : 577 MiB
Duration                       : 5 min 15 s
Overall bit rate               : 15.3 Mb/s
Writing application            : Lavf58.12.100

Video
ID                             : 1
Format                         : AVC
Format/Info                    : Advanced Video Codec
Format profile                 : High@L5.1
Format settings                : CABAC / 4 Ref Frames
Format settings, CABAC         : Yes
Format settings, Reference fra : 4 frames
Codec ID                       : avc1
Codec ID/Info                  : Advanced Video Coding
Duration                       : 5 min 15 s
Bit rate                       : 15.0 Mb/s
Width                          : 3 840 pixels
Height                         : 2 160 pixels
Display aspect ratio           : 16:9
Frame rate mode                : Constant
Frame rate                     : 29.000 FPS
Color space                    : YUV
Chroma subsampling             : 4:2:0
Bit depth                      : 8 bits
Scan type                      : Progressive
Bits/(Pixel*Frame)             : 0.062
Stream size                    : 572 MiB (99%)
Writing library                : x264 core 148
Encoding settings              : cabac=1 / ref=3 / deblock=1:0:0 / analyse=0x3:0x113 / me=hex / subme=7 / psy=1 / psy_rd=1.00:0.00 / mixed_ref=1 / me_range=16 / chroma_me=1 / trellis=1 / 8x8dct=1 / cqm=0 / deadzone=21,11 / fast_pskip=1 / chroma_qp_offset=-2 / threads=6 / lookahead_threads=1 / sliced_threads=0 / nr=0 / decimate=1 / interlaced=0 / bluray_compat=0 / constrained_intra=0 / bframes=3 / b_pyramid=2 / b_adapt=1 / b_bias=0 / direct=1 / weightb=1 / open_gop=0 / weightp=2 / keyint=250 / keyint_min=25 / scenecut=40 / intra_refresh=0 / rc_lookahead=40 / rc=abr / mbtree=1 / bitrate=15000 / ratetol=1.0 / qcomp=0.60 / qpmin=0 / qpmax=69 / qpstep=4 / ip_ratio=1.40 / aq=1:1.00
Language                       : English
Codec configuration box        : avcC

Audio
ID                             : 2
Format                         : AAC LC
Format/Info                    : Advanced Audio Codec Low Complexity
Codec ID                       : mp4a-40-2
Duration                       : 5 min 15 s
Bit rate mode                  : Constant
Bit rate                       : 129 kb/s
Channel(s)                     : 2 channels
Channel layout                 : L R
Sampling rate                  : 44.1 kHz
Frame rate                     : 43.066 FPS (1024 SPF)
Compression mode               : Lossy
Stream size                    : 4.84 MiB (1%)
Language                       : English
Default                        : Yes
Alternate group                : 1

2019 清凉夏日比基尼美女性感走秀写真4 [2160P/MP4/577MB]


网盘下载失效不补:链接: https://pan.baidu.com/s/1VeLL-bbHPQ0lc-8Qufk5eA
****此地区为收费内容****    需支付 15 金币后可察看立刻购买



.

0 0

上一篇:2019 韩国比基尼健美比赛现场实拍153[2160P/MP4/220MB]
下一篇:[4K景色]航拍金黄色沙漠骆驼绿洲日出日落 [2160P/MP4/128MB]

40

皇冠体育投注

1115

帖子

3143

积分

皇冠体育赌场VIP

Rank: 9Rank: 9Rank: 9

积分
3143
沙发
公布于 5 天前 来自手机 | 只看该作者
专业抢沙发的!哈哈

1

皇冠体育投注

444

帖子

3529

积分

皇冠体育赌场VIP

Rank: 9Rank: 9Rank: 9

积分
3529
QQ
板凳
公布于 5 天前 | 只看该作者
沙发我要了!!

1

皇冠体育投注

444

帖子

3529

积分

皇冠体育赌场VIP

Rank: 9Rank: 9Rank: 9

积分
3529
QQ
地板
公布于 5 天前 | 只看该作者
逾期了!1老大补一下啊!!

2

皇冠体育投注

812

帖子

2452

积分

皇冠体育赌场VIP

Rank: 9Rank: 9Rank: 9

积分
2452
5#
公布于 5 天前 | 只看该作者
撸过

0

皇冠体育投注

687

帖子

3731

积分

中级会员

Rank: 4

积分
3731
6#
公布于 5 天前 | 只看该作者
不克离开皇冠体育赌场。

0

皇冠体育投注

3

帖子

12

积分

新手上路

Rank: 1

积分
12
7#
公布于 5 天前 来自手机 | 只看该作者
没有看见

0

皇冠体育投注

3

帖子

12

积分

新手上路

Rank: 1

积分
12
8#
公布于 5 天前 来自手机 | 只看该作者
没看见没措施啊

1

皇冠体育投注

796

帖子

2404

积分

皇冠体育赌场VIP

Rank: 9Rank: 9Rank: 9

积分
2404
9#
公布于 4 天前 | 只看该作者
纯粹路过,没任何兴趣,仅仅是看在老用户份上回复一下

0

皇冠体育投注

808

帖子

2442

积分

皇冠体育赌场VIP

Rank: 9Rank: 9Rank: 9

积分
2442
10#
公布于 4 天前 | 只看该作者
怎么这么大,希望我电视能看啊
您需要登录后才能够回帖 登录 | 立刻注册

本版积分法则

精彩图文
封闭

站长推举上一条 /1 下一条

Archiver|手机版|TAG|Sitemap|新帖|专题|联系我们:邮箱: 4kjia.com@gmail.com   

皇冠体育赌场   ©2019    

条评论